MKV檔問題

MKV檔問題

文章duck526 » 週三 7月 8日, 2015年 10:47 pm

MKV檔使用的2個問題
1.歌曲一開始直接切換成 伴唱軌 ,當機,如要順利播放要等幾秒後才能切換。

2.前一首MKV檔歌曲播完 如沒切回 導唱軌 ,播到 下一首MKV檔 ,當機。

以上當機,需重新開機,請問該如何處理。

以下是檔案相關資訊,請參閱謝謝。
Format : Matroska
Format version : Version 2
File size : 48.9 MiB
Duration : 4mn 35s
Overall bit rate : 1 488 Kbps
Writing application : Lavf54.63.104
Writing library : Lavf54.63.104
Video #1
ID : 1
Format : AVC
Format/Info : Advanced Video Codec
Format profile : High@L3.0
Format settings, CABAC : Yes
Format settings, ReFrames : 4 frames
Codec ID : V_MPEG4/ISO/AVC
Duration : 4mn 35s
Bit rate : 1 024 Kbps
Width : 720 pixels
Height : 480 pixels
Display aspect ratio : 3:2
Frame rate mode : Constant
Frame rate : 29.970 fps
Standard : NTSC
Color space : YUV
Chroma subsampling : 4:2:0
Bit depth : 8 bits
Scan type : Progressive
Bits/(Pixel*Frame) : 0.099
Stream size : 33.2 MiB (68%)
Writing library : x264 core 133
Encoding settings : cabac=1 / ref=3 / deblock=1:0:0 / analyse=0x3:0x113 / me=hex / subme=7 / psy=1 / psy_rd=1.00:0.00 / mixed_ref=1 / me_range=16 / chroma_me=1 / trellis=1 / 8x8dct=1 / cqm=0 / deadzone=21,11 / fast_pskip=1 / chroma_qp_offset=-2 / threads=2 / lookahead_threads=1 / sliced_threads=0 / nr=0 / decimate=1 / interlaced=0 / bluray_compat=0 / constrained_intra=0 / bframes=3 / b_pyramid=2 / b_adapt=1 / b_bias=0 / direct=1 / weightb=1 / open_gop=0 / weightp=2 / keyint=250 / keyint_min=25 / scenecut=40 / intra_refresh=0 / rc_lookahead=40 / rc=abr / mbtree=1 / bitrate=1024 / ratetol=1.0 / qcomp=0.60 / qpmin=0 / qpmax=69 / qpstep=4 / ip_ratio=1.40 / aq=1:1.00
Default : Yes
Forced : No
Audio #2
ID : 2
Format : AC-3
Format/Info : Audio Coding 3
Mode extension : CM (complete main)
Format settings, Endianness : Big
Codec ID : A_AC3
Duration : 4mn 35s
Bit rate mode : Constant
Bit rate : 224 Kbps
Channel(s) : 2 channels
Channel positions : Front: L R
Sampling rate : 48.0 KHz
Bit depth : 16 bits
Compression mode : Lossy
Delay relative to video : 27ms
Stream size : 7.36 MiB (15%)
Default : Yes
Forced : No
Audio #3
ID : 3
Format : AC-3
Format/Info : Audio Coding 3
Mode extension : CM (complete main)
Format settings, Endianness : Big
Codec ID : A_AC3
Duration : 4mn 35s
Bit rate mode : Constant
Bit rate : 224 Kbps
Channel(s) : 2 channels
Channel positions : Front: L R
Sampling rate : 48.0 KHz
Bit depth : 16 bits
Compression mode : Lossy
Delay relative to video : 27ms
Stream size : 7.36 MiB (15%)
Default : Yes
Forced : No
duck526
 
文章: 4
註冊時間: 週六 2月 7日, 2015年 10:15 pm

Re: MKV檔問題

文章barklie » 週四 7月 9日, 2015年 11:08 am

您好:您的MKV檔是否是去 http://bumble.666bbs.com.tw/ 下載的,這裡的MKV 每一首歌前面10秒有個空白的東西,切換音軌會造成當機,您只要用MediaCoder 這一個軟體轉一次就ok了!
barklie
系統管理員
 
文章: 245
註冊時間: 週四 3月 28日, 2013年 3:55 pm

Re: MKV檔問題

文章duck526 » 週四 7月 9日, 2015年 2:28 pm

謝謝barklie大,歌曲是到大大說的論壇載的,但是不懂大大說轉一次就OK,參數上要怎麼設定才能去掉前面10秒呢?
duck526
 
文章: 4
註冊時間: 週六 2月 7日, 2015年 10:15 pm

Re: MKV檔問題

文章barklie » 週二 7月 14日, 2015年 3:06 pm

您好,直接用Media Coder MKV 轉MKV 就可以了
barklie
系統管理員
 
文章: 245
註冊時間: 週四 3月 28日, 2013年 3:55 pm


回到 精華區

誰在線上

正在瀏覽這個版面的使用者:沒有註冊會員 和 1 位訪客

cron