sk04hd

sk04hd

文章xboxzoe » 週二 2月 4日, 2014年 11:29 am

想請問一下 最近剛買的sk04hd 最近試用唱mkv檔的卡啦ok發現只要切換到第二軌段
有很大的機會會當機 然後選擇開機自動播放功能播一兩首後也時常當機而且都還沒畫
面出來就當了
xboxzoe
 
文章: 14
註冊時間: 週一 9月 9日, 2013年 4:33 pm

Re: sk04hd

文章barklie » 週二 2月 4日, 2014年 3:49 pm

您好:請問您的MKV是何種編碼?一首歌曲大約多大?有幾個音軌?自動播放是採用完全隨機嗎?
barklie
系統管理員
 
文章: 245
註冊時間: 週四 3月 28日, 2013年 3:55 pm

Re: sk04hd

文章xboxzoe » 週二 2月 4日, 2014年 10:12 pm

何種編碼我也不曉得 但檔案大多是40~70m
xboxzoe
 
文章: 14
註冊時間: 週一 9月 9日, 2013年 4:33 pm

Re: sk04hd

文章barklie » 週二 2月 4日, 2014年 11:02 pm

是否可以用media coder 轉檔一首試試,用h264編碼,謝謝
barklie
系統管理員
 
文章: 245
註冊時間: 週四 3月 28日, 2013年 3:55 pm

Re: sk04hd

文章xboxzoe » 週三 2月 5日, 2014年 8:13 am

我沒有dvd檔可以直接轉 用mkv轉又沒音軌 還是版主有方法可以mkv 轉mkv仍能保留音軌呢
xboxzoe
 
文章: 14
註冊時間: 週一 9月 9日, 2013年 4:33 pm

Re: sk04hd

文章xboxzoe » 週三 2月 5日, 2014年 1:46 pm

你好 剛有試了 是可以mkv轉mkv 仍保留兩個軌段 照你說的轉測試後是ok的 但 有近兩千首 有方法可以快速分辨出那個是會當機的檔案嗎
xboxzoe
 
文章: 14
註冊時間: 週一 9月 9日, 2013年 4:33 pm

Re: sk04hd

文章barklie » 週三 2月 5日, 2014年 3:45 pm

您好:只要音訊編碼是AAC就不會有問題,用Media Coder 預設值就是轉成AAC ,請寫封信給我,我告訴您如何處理比較快,謝謝! ski@wach.com.tw
barklie
系統管理員
 
文章: 245
註冊時間: 週四 3月 28日, 2013年 3:55 pm

Re: sk04hd

文章xboxzoe » 週四 2月 6日, 2014年 11:56 am

想請問有沒有一套軟體 可以直接顯示音訊格式 並按不同音訊格式排列呢 這樣我就可以直接找出非aac音訊格式的檔案 挑出來轉檔就好
xboxzoe
 
文章: 14
註冊時間: 週一 9月 9日, 2013年 4:33 pm

Re: sk04hd

文章xboxzoe » 週四 2月 6日, 2014年 1:05 pm

剛又發現 有些非aac3的也可以播
這些媒體資訊 是一首吳克群 冰的啦 的資料 每次切換節二軌點歌一開始就死當
找一些音訊格式相同的ac-3都可以播 這一首就不行
還有謝金燕的姐姐 黃美珍的無聲抗議

後來發現 音訊軌未段有一串Language : English
這個字串的都不能直接播 會當不知道有沒有關系


C:\Users\aaron kyo\Desktop\新增資料夾\32956.mkv
General
Unique ID : 141276694095581377780815547413532526109 (0x6A48E6CCA769B653E6CF655E1468461D)
Complete name : C:\Users\aaron kyo\Desktop\新增資料夾\32956.mkv
Format : Matroska
File size : 40.7 MiB
Duration : 3mn 53s
Overall bit rate : 1 464 Kbps
Writing application : Lavf54.63.104
Writing library : Lavf54.63.104
Video #1
ID : 1
Format : AVC
Format/Info : Advanced Video Codec
Format profile : High@L3.0
Format settings, CABAC : Yes
Format settings, ReFrames : 4 frames
Codec ID : V_MPEG4/ISO/AVC
Duration : 3mn 53s
Bit rate : 1 024 Kbps
Width : 720 pixels
Height : 480 pixels
Display aspect ratio : 3:2
Frame rate mode : Variable
Frame rate : 29.970 fps
Standard : NTSC
Color space : YUV
Chroma subsampling : 4:2:0
Bit depth : 8 bits
Scan type : Progressive
Bits/(Pixel*Frame) : 0.099
Stream size : 27.5 MiB (67%)
Writing library : x264 core 133
Encoding settings : cabac=1 / ref=3 / deblock=1:0:0 / analyse=0x3:0x113 / me=hex / subme=7 / psy=1 / psy_rd=1.00:0.00 / mixed_ref=1 / me_range=16 / chroma_me=1 / trellis=1 / 8x8dct=1 / cqm=0 / deadzone=21,11 / fast_pskip=1 / chroma_qp_offset=-2 / threads=2 / lookahead_threads=1 / sliced_threads=0 / nr=0 / decimate=1 / interlaced=0 / bluray_compat=0 / constrained_intra=0 / bframes=3 / b_pyramid=2 / b_adapt=1 / b_bias=0 / direct=1 / weightb=1 / open_gop=0 / weightp=2 / keyint=250 / keyint_min=25 / scenecut=40 / intra_refresh=0 / rc_lookahead=40 / rc=abr / mbtree=1 / bitrate=1024 / ratetol=1.0 / qcomp=0.60 / qpmin=0 / qpmax=69 / qpstep=4 / ip_ratio=1.40 / aq=1:1.00
Language : English
Audio #2
ID : 2
Format : AC-3
Format/Info : Audio Coding 3
Mode extension : CM (complete main)
Codec ID : A_AC3
Duration : 3mn 53s
Bit rate mode : Constant
Bit rate : 224 Kbps
Channel(s) : 2 channels
Channel positions : Front: L R
Sampling rate : 48.0 KHz
Bit depth : 16 bits
Compression mode : Lossy
Delay relative to video : 1mn 5s
Stream size : 6.23 MiB (15%)
Language : English
Audio #3
ID : 3
Format : AC-3
Format/Info : Audio Coding 3
Mode extension : CM (complete main)
Codec ID : A_AC3
Duration : 3mn 53s
Bit rate mode : Constant
Bit rate : 224 Kbps
Channel(s) : 2 channels
Channel positions : Front: L R
Sampling rate : 48.0 KHz
Bit depth : 16 bits
Compression mode : Lossy
Delay relative to video : 1mn 5s
Stream size : 6.23 MiB (15%)
Language : English
xboxzoe
 
文章: 14
註冊時間: 週一 9月 9日, 2013年 4:33 pm

Re: sk04hd

文章barklie » 週四 2月 6日, 2014年 6:33 pm

我們測試發現,其實AC3編碼也可以播,只是前面有一小段音訊如果有延遲的話,一進歌曲就做切換音軌會造成當機如果晚一點切換就沒事,我們正在找原因,謝謝!
barklie
系統管理員
 
文章: 245
註冊時間: 週四 3月 28日, 2013年 3:55 pm


回到 精華區

誰在線上

正在瀏覽這個版面的使用者:沒有註冊會員 和 1 位訪客

cron